Hindi Songs | Telugu Songs | Tamil Songs

Details for this torrent 

Blade Runner 2049.BRRip.XviD.AC3-VVEXO
Type:
Video > Movies
Files:
4
Size:
1 GiB (1078473025 Bytes)
Info:
IMDB
Uploaded:
2018-01-14 02:07:58 GMT
By:
vvesko
Seeders:
40
Leechers:
5
Comments
0  

Info Hash:
BDA9726761B897A3FD51C595105DAF2F1D1D7736




(Problems with magnets links are fixed by upgrading your torrent client!)
General
Complete name               : Blade Runner 2049.BRRip.XviD.AC3-VVEXO.avi
Format                      : AVI
Format/Info                 : Audio Video Interleave
File size                   : 1.00 GiB
Duration                    : 2 h 43 min
Overall bit rate            : 880 kb/s
Writing application         : MEncoder SVN-r22963
Writing library             : MPlayer

Video
ID                          : 0
Format                      : MPEG-4 Visual
Format profile              : [email protected]
Format settings, BVOP       : No
Format settings, QPel       : No
Format settings, GMC        : No warppoints
Format settings, Matrix     : Default (H.263)
Codec ID                    : XVID
Codec ID/Hint               : XviD
Duration                    : 2 h 43 min
Bit rate                    : 675 kb/s
Width                       : 720 pixels
Height                      : 304 pixels
Display aspect ratio        : 2.35:1
Frame rate                  : 23.976 (24000/1001) FPS
Color space                 : YUV
Chroma subsampling          : 4:2:0
Bit depth                   : 8 bits
Scan type                   : Progressive
Compression mode            : Lossy
Bits/(Pixel*Frame)          : 0.129
Stream size                 : 790 MiB (77%)
Writing library             : Lavc51.40.2

Audio
ID                          : 1
Format                      : MPEG Audio
Format version              : Version 1
Format profile              : Layer 3
Codec ID                    : 55
Codec ID/Hint               : MP3
Duration                    : 2 h 43 min
Bit rate mode               : Constant
Bit rate                    : 192 kb/s
Channel(s)                  : 2 channels
Sampling rate               : 44.1 kHz
Compression mode            : Lossy
Stream size                 : 224 MiB (22%)
Alignment                   : Aligned on interleaves
Interleave, duration        : 26  ms (0.63 video frame)
Interleave, preload duratio : 522  ms